П`ятниця, 29.05.2020, 18:11
Вітаю Вас Гість | RSS

Волицька ЗОШ І-ІІІ ступенів

Запрошуємо!
Наше опитування
Оцініть мій сайт
Всього відповідей: 66
Статистика

Онлайн всього: 1
Гостей: 1
Користувачів: 0
Форма входу
Головна » 2014 » Квітень » 17 » Скачать Оттенки свободы русской философии
04:22
Скачать Оттенки свободы русской философии

Оттенки свободы русской философии скачать

Русская виртуальная библиотека ...

Скачать

Размер: 137.3 МБ
Сидов: 0
Личей: неизвестно
Добавлен в базу: неизвестно
Файлы в архиве: Оттенки свободы русской философии.avi

Оттенки свободы русской философии
Дата/Год выпуска: 11.04.2014
Страна: Россия
Жанр: философско-патриотический
Продолжительность: 00:11:10
Перевод: Не требуется
Русские субтитры: нет
Оригинальная аудиодорожка: русский
Телеканал: День ТВ
Описание: Андрей Фефелов и Федор Гиренок о понятии свободы для русского человека.
качество: WEBRip
формат: AVI
Видео: xvid, 720x400 (16:9), 25.000 fps, 1 517 Kbps (0.211 bit/pixel)
Аудио: MP3, 44.1 KHz, 2 ch, 192 Kbps, CBR MediaInfo General
Complete name : D:\документалка\AVI\Оттенки свободы русской философии.avi
Format : AVI
Format/Info : Audio Video Interleave
File size : 137 MiB
Duration : 11mn 10s
Overall bit rate : 1 719 Kbps
Writing application : VirtualDubMod 1.5.10.2 (build 2540/release)
Writing library : VirtualDubMod build 2540/release
Video
ID : 0
Format : xvid
Codec ID : xvid
Duration : 11mn 10s
Bit rate : 1 517 Kbps
Width : 720 pixels
Height : 400 pixels
Display aspect ratio : 16:9
Frame rate : 25.000 fps
Bits/(Pixel*Frame) : 0.211
Stream size : 121 MiB (88%)
Audio
ID : 1
Format : MPEG Audio
Format version : Version 1
Format profile : Layer 3
Mode : Joint stereo
Mode extension : MS Stereo
Codec ID : 55
Codec ID/Hint : MP3
Duration : 11mn 10s
Bit rate mode : Constant
Bit rate : 192 Kbps
Channel(s) : 2 channels
Sampling rate : 44.1 KHz
Compression mode : Lossy
Delay relative to video : 9ms
Stream size : 15.3 MiB (11%)
Alignment : Split accross interleaves
Interleave, duration : 40 ms (1.00 video frame)
Interleave, preload duration : 500 ms
Writing library : LAME3.98.4 Скриншоты Download Скачать .torrent файл Как скачивать  ·  Что такое torrent (торрент)
Сайт не распространяет и не хранит электронные версии произведений, а лишь предоставляет доступ к создаваемому пользователями каталогу ссылок на торрент-файлы, которые содержат только списки хеш-сумм var begun_auto_pad=339079238; var begun_block_id=339340390;

Скачать файл через файлообменник: Скачать

Скачать через торрент: Скачать торрент

Тэги: Книга Пятьдесят оттенков, Свобода — Википедия, Философия сознания — Википедия, . Публикации в журналах, История русской критики XVIII—XIX, библиотека философии Гумер, Э. Л. Джеймс "50 оттенков серого, Русская виртуальная библиотека, Современная проза: купить, красота, здоровье, дети

Переглядів: 288 | Додав: Адміністратор | Рейтинг: 0.0/0
Всього коментарів: 0
Ім`я *:
Email *:
Код *:
Пошук
Календар
«  Квітень 2014  »
ПнВтСрЧтПтСбНд
 123456
78910111213
14151617181920
21222324252627
282930
Друзі сайту

Copyright MyCorp © 2020
Конструктор сайтів - uCoz